<?xml version="1.0" standalone="no"?>
<!DOCTYPE svg PUBLIC "-//W3C//DTD SVG 1.1//EN" "http://www.w3.org/Graphics/SVG/1.1/DTD/svg11.dtd" >
<svg xmlns="http://www.w3.org/2000/svg">
<metadata>Generated by IcoMoon</metadata>
<defs>
<font id="icomoon" horiz-adv-x="1024">
<font-face units-per-em="1024" ascent="960" descent="-64" />
<missing-glyph horiz-adv-x="1024" />
<glyph unicode="&#x20;" horiz-adv-x="512" d="" />
<glyph unicode="&#xe900;" glyph-name="car" horiz-adv-x="1363" d="M348.756 960c-0.419 0.004-0.913 0.007-1.408 0.007-34.182 0-65.695-11.423-90.932-30.659l0.366 0.268c-26.098-19.177-45.502-46.106-54.912-77.365l-0.273-1.054-70.377-235.185-99.198 33.587-32.023-95.995 100.836-33.587-32.023-108.805c-0.938-4.296-1.505-9.251-1.564-14.329v-409.644c-0.003-0.204-0.005-0.446-0.005-0.687 0-13.831 5.704-26.33 14.888-35.272l0.011-0.011c8.953-9.195 21.452-14.899 35.283-14.899 0.242 0 0.483 0.002 0.724 0.005h153.825l17.576 51.163h784.049l17.576-51.237h153.637c0.204-0.003 0.446-0.005 0.687-0.005 13.831 0 26.33 5.704 35.272 14.888l0.011 0.011c9.195 8.953 14.899 21.452 14.899 35.283 0 0.242-0.002 0.483-0.005 0.724v-0.036 409.6c-0.059 5.122-0.626 10.077-1.652 14.862l0.088-0.489-31.651 108.879 100.836 33.587-32.023 95.995-99.198-33.587-70.377 235.185c-9.8 32.363-29.358 59.301-55.205 78.124l-0.426 0.296c-24.87 18.969-56.384 30.391-90.566 30.391-0.495 0-0.99-0.002-1.484-0.007l0.076 0.001zM348.756 857.6h665.637c0.193 0.003 0.42 0.004 0.648 0.004 11.559 0 22.202-3.925 30.668-10.514l-0.112 0.084c8.662-6.512 15.115-15.545 18.3-26.002l0.095-0.361 65.61-219.173h-896.056l65.61 219.173c3.279 10.818 9.732 19.851 18.264 26.269l0.131 0.094c8.354 6.506 18.996 10.43 30.556 10.43 0.228 0 0.456-0.002 0.683-0.005h-0.034zM203.162 499.163h956.826l33.587-111.709v-297.891h-1024v297.891zM297.593 447.926c-0.349 0.006-0.76 0.009-1.172 0.009-20.832 0-39.665-8.553-53.181-22.339l-0.012-0.012c-13.798-13.528-22.351-32.362-22.351-53.193 0-0.412 0.003-0.823 0.010-1.234l-0.001 0.062c-0.006-0.349-0.009-0.76-0.009-1.172 0-20.832 8.553-39.665 22.339-53.181l0.012-0.012c13.528-13.798 32.362-22.351 53.193-22.351 0.412 0 0.823 0.003 1.234 0.010l-0.062-0.001c0.349-0.006 0.76-0.009 1.172-0.009 20.832 0 39.665 8.553 53.181 22.339l0.012 0.012c13.798 13.528 22.351 32.362 22.351 53.193 0 0.412-0.003 0.823-0.010 1.234l0.001-0.062c0.006 0.349 0.009 0.76 0.009 1.172 0 20.832-8.553 39.665-22.339 53.181l-0.012 0.012c-13.534 13.842-32.397 22.424-53.265 22.424-0.387 0-0.773-0.003-1.158-0.009l0.058 0.001zM1065.63 447.926c-0.349 0.006-0.76 0.009-1.172 0.009-20.832 0-39.665-8.553-53.181-22.339l-0.012-0.012c-13.798-13.528-22.351-32.362-22.351-53.193 0-0.412 0.003-0.823 0.010-1.234l-0.001 0.062c-0.006-0.349-0.009-0.76-0.009-1.172 0-20.832 8.553-39.665 22.339-53.181l0.012-0.012c13.528-13.798 32.362-22.351 53.193-22.351 0.412 0 0.823 0.003 1.234 0.010l-0.062-0.001c0.349-0.006 0.76-0.009 1.172-0.009 20.832 0 39.665 8.553 53.181 22.339l0.012 0.012c13.798 13.528 22.351 32.362 22.351 53.193 0 0.412-0.003 0.823-0.010 1.234l0.001-0.062c0.006 0.349 0.009 0.76 0.009 1.172 0 20.832-8.553 39.665-22.339 53.181l-0.012 0.012c-13.535 13.842-32.398 22.426-53.266 22.426-0.413 0-0.824-0.003-1.236-0.010l0.062 0.001zM476.774 294.363l-63.972-153.637h110.369l22.342 51.163h272.049l22.342-51.237h110.443l-63.972 153.712z" />
<glyph unicode="&#xe901;" glyph-name="checklist" horiz-adv-x="834" d="M417.202 960c-0.371 0.006-0.809 0.009-1.248 0.009-22.841 0-43.688-8.538-59.524-22.596l0.092 0.080c-16.797-13.971-29.8-31.943-37.607-52.475l-0.29-0.868h-318.569v-948.15h834.348v948.15h-318.845c-8.097 21.4-21.1 39.372-37.692 53.177l-0.205 0.166c-15.743 13.976-36.589 22.513-59.429 22.513-0.362 0-0.724-0.002-1.086-0.006l0.055 0.001zM417.202 884.15c0.151 0.002 0.33 0.004 0.509 0.004 10.245 0 19.503-4.225 26.127-11.028l0.008-0.008c6.811-6.632 11.036-15.89 11.036-26.135 0-0.179-0.001-0.358-0.004-0.536v0.027-37.952h114.023v-75.85h-303.399v75.85h113.802v37.897c-0.002 0.151-0.004 0.33-0.004 0.509 0 10.245 4.225 19.503 11.028 26.127l0.008 0.008c6.637 6.845 15.918 11.094 26.191 11.094 0.237 0 0.473-0.002 0.709-0.007l-0.035 0.001zM75.905 808.3h113.802v-151.7h455.099v151.7h113.747v-796.451h-682.648zM617.5 532.152l-238.196-238.251-124.449 124.504-54.502-54.502 151.7-151.7 27.251-26.092 27.251 26.092 265.447 265.447z" />
<glyph unicode="&#xe902;" glyph-name="damage" horiz-adv-x="1347" d="M348.774 960c-0.076 0-0.166 0-0.256 0-68.853 0-127.126-45.304-146.634-107.729l-0.293-1.088-70.383-235.179-99.26 33.587-32.017-95.983 100.83-33.587-32.017-108.817c-0.945-4.306-1.514-9.273-1.57-14.362v-409.642c0.379-28.123 23.077-50.821 51.164-51.2h153.636l33.587 102.4h268.834l508.791-78.37 7.987-24.030h155.17c0.176-0.002 0.383-0.004 0.591-0.004 12.727 0 24.321 4.851 33.034 12.804l-0.038-0.034 3.209 3.209c7.842 8.291 12.704 19.472 12.834 31.787v11.222l-43.213 299.213h94.413v102.4h-121.583l-108.817 222.618 44.783 150.187c1.523 4.663 2.401 10.028 2.401 15.599s-0.878 10.936-2.503 15.966l0.103-0.367c-3.212 10.184-9.378 18.668-17.483 24.688l-0.13 0.092-99.191 73.796c-7.177 5.164-15.906 8.621-25.37 9.606l-0.23 0.019zM348.774 857.6l646.417-49.63 57.617-43.213-40.004-134.417c-1.613-4.627-2.545-9.96-2.545-15.511 0-8.394 2.131-16.29 5.881-23.177l-0.127 0.255 76.8-157.013-313.617 109.090-6.417 3.209h-6.417l-534.391 49.63 67.311 223.983c3.277 10.845 9.745 19.899 18.301 26.325l0.131 0.094c8.342 6.475 18.96 10.38 30.49 10.38 0.201 0 0.401-0.001 0.602-0.004h-0.031zM201.591 495.787l555.076-51.2 390.417-137.626 36.796-257.57-593.92 91.204h-66.765l22.391 51.2 353.621-51.2-64.034 102.605-358.4 51.2-63.966-153.6h-243.234v246.374zM297.574 448c-41.99-0.312-75.909-34.423-75.909-76.457 0-42.227 34.232-76.459 76.459-76.459s76.459 34.232 76.459 76.459c0 21.114-8.558 40.229-22.395 54.065v0c-13.47 13.829-32.273 22.407-53.078 22.407-0.54 0-1.078-0.006-1.615-0.017l0.080 0.001zM931.157 307.166c-3.611-9.452-5.703-20.384-5.703-31.805 0-14.32 3.288-27.871 9.15-39.941l-0.238 0.544c10.292-22.377 29.095-39.354 52.152-46.995l0.618-0.177c9.452-3.611 20.384-5.703 31.805-5.703 14.32 0 27.871 3.288 39.941 9.15l-0.544-0.238c22.377 10.292 39.354 29.095 46.995 52.152l0.177 0.618z" />
<glyph unicode="&#xe903;" glyph-name="dashboard" horiz-adv-x="1229" d="M614.4 960c-0.741 0.003-1.619 0.005-2.496 0.005-113.656 0-219.946-31.538-310.596-86.339l2.69 1.509c-91.952-52.937-166.236-127.22-217.67-216.349l-1.503-2.824c-53.292-87.96-84.83-194.25-84.83-307.906 0-0.878 0.002-1.755 0.006-2.632v0.136c0-0.245-0.001-0.535-0.001-0.825 0-75.468 13.486-147.786 38.178-214.676l-1.388 4.296c26.38-68.728 61.592-128.031 105.081-180.192l-0.819 1.010 14.373-19.214h918.174l14.373 19.214c42.67 51.151 77.882 110.454 102.799 174.882l1.463 4.3c23.165 62.42 36.568 134.526 36.568 209.763 0 0.507-0.001 1.014-0.002 1.521v-0.079c0.004 0.847 0.007 1.849 0.007 2.852 0 113.333-30.903 219.449-84.743 310.379l1.55-2.829c-53.826 91.767-128.553 165.97-217.938 217.641l-2.874 1.533c-87.96 53.292-194.25 84.83-307.906 84.83-0.878 0-1.755-0.002-2.632-0.006h0.136zM614.4 857.6c0.722 0.004 1.576 0.006 2.431 0.006 94.724 0 183.337-26.161 259.009-71.651l-2.275 1.268c76.188-44.552 137.906-106.269 181.184-180.105l1.275-2.353c44.222-73.397 70.383-162.011 70.383-256.734 0-0.855-0.002-1.709-0.006-2.562l0.001 0.131c0-0.139 0-0.303 0-0.467 0-58.959-10.565-115.451-29.905-167.685l1.084 3.344c-19.544-54.421-45.519-101.545-77.713-143.661l0.931 1.27h-812.795c-31.262 40.847-57.237 87.971-75.622 138.73l-1.159 3.662c-18.256 48.89-28.821 105.382-28.821 164.341 0 0.164 0 0.328 0 0.493v-0.026c-0.004 0.722-0.006 1.576-0.006 2.431 0 94.724 26.161 183.337 71.651 259.009l-1.268-2.275c44.596 76.040 106.306 137.631 180.099 180.81l2.359 1.276c73.544 44.451 162.379 70.752 257.357 70.752 0.636 0 1.271-0.001 1.907-0.004h-0.098zM614.4 806.363c-0.204 0.003-0.446 0.005-0.687 0.005-13.831 0-26.33-5.704-35.272-14.888l-0.011-0.011c-9.195-8.953-14.899-21.452-14.899-35.283 0-0.242 0.002-0.483 0.005-0.724v0.036c-0.003-0.204-0.005-0.446-0.005-0.687 0-13.831 5.704-26.33 14.888-35.272l0.011-0.011c8.953-9.195 21.452-14.899 35.283-14.899 0.242 0 0.483 0.002 0.724 0.005h-0.036c0.204-0.003 0.446-0.005 0.687-0.005 13.831 0 26.33 5.704 35.272 14.888l0.011 0.011c9.195 8.953 14.899 21.452 14.899 35.283 0 0.242-0.002 0.483-0.005 0.724v-0.036c0.003 0.204 0.005 0.446 0.005 0.687 0 13.831-5.704 26.33-14.888 35.272l-0.011 0.011c-8.953 9.195-21.452 14.899-35.283 14.899-0.242 0-0.483-0.002-0.724-0.005h0.036zM409.6 751.998c-0.204 0.003-0.446 0.005-0.687 0.005-13.831 0-26.33-5.704-35.272-14.888l-0.011-0.011c-9.195-8.953-14.899-21.452-14.899-35.283 0-0.242 0.002-0.483 0.005-0.724v0.036c-0.003-0.204-0.005-0.446-0.005-0.687 0-13.831 5.704-26.33 14.888-35.272l0.011-0.011c8.953-9.195 21.452-14.899 35.283-14.899 0.242 0 0.483 0.002 0.724 0.005h-0.036c0.204-0.003 0.446-0.005 0.687-0.005 13.831 0 26.33 5.704 35.272 14.888l0.011 0.011c9.195 8.953 14.899 21.452 14.899 35.283 0 0.242-0.002 0.483-0.005 0.724v-0.036c0.003 0.204 0.005 0.446 0.005 0.687 0 13.831-5.704 26.33-14.888 35.272l-0.011 0.011c-8.953 9.195-21.452 14.899-35.283 14.899-0.242 0-0.483-0.002-0.724-0.005h0.036zM819.2 751.998c-0.204 0.003-0.446 0.005-0.687 0.005-13.831 0-26.33-5.704-35.272-14.888l-0.011-0.011c-9.195-8.953-14.899-21.452-14.899-35.283 0-0.242 0.002-0.483 0.005-0.724v0.036c-0.003-0.204-0.005-0.446-0.005-0.687 0-13.831 5.704-26.33 14.888-35.272l0.011-0.011c8.953-9.195 21.452-14.899 35.283-14.899 0.242 0 0.483 0.002 0.724 0.005h-0.036c0.204-0.003 0.446-0.005 0.687-0.005 13.831 0 26.33 5.704 35.272 14.888l0.011 0.011c9.195 8.953 14.899 21.452 14.899 35.283 0 0.242-0.002 0.483-0.005 0.724v-0.036c0.003 0.204 0.005 0.446 0.005 0.687 0 13.831-5.704 26.33-14.888 35.272l-0.011 0.011c-8.953 9.195-21.452 14.899-35.283 14.899-0.242 0-0.483-0.002-0.724-0.005h0.036zM259.165 601.563c-0.204 0.003-0.446 0.005-0.687 0.005-13.831 0-26.33-5.704-35.272-14.888l-0.011-0.011c-9.195-8.953-14.899-21.452-14.899-35.283 0-0.242 0.002-0.483 0.005-0.724v0.036c-0.003-0.204-0.005-0.446-0.005-0.687 0-13.831 5.704-26.33 14.888-35.272l0.011-0.011c8.953-9.195 21.452-14.899 35.283-14.899 0.242 0 0.483 0.002 0.724 0.005h-0.036c0.204-0.003 0.446-0.005 0.687-0.005 13.831 0 26.33 5.704 35.272 14.888l0.011 0.011c9.195 8.953 14.899 21.452 14.899 35.283 0 0.242-0.002 0.483-0.005 0.724v-0.036c0.003 0.204 0.005 0.446 0.005 0.687 0 13.831-5.704 26.33-14.888 35.272l-0.011 0.011c-8.953 9.195-21.452 14.899-35.283 14.899-0.242 0-0.483-0.002-0.724-0.005h0.036zM955.187 599.999l-289.55-166.372c-14.535 9.024-32.17 14.373-51.054 14.373-0.064 0-0.129 0-0.193 0h0.010c-0.606 0.013-1.321 0.021-2.037 0.021-27.737 0-52.809-11.41-70.779-29.792l-0.018-0.019c-18.4-17.988-29.81-43.060-29.81-70.797 0-0.716 0.008-1.431 0.023-2.144l-0.002 0.106c-0.013-0.606-0.021-1.321-0.021-2.037 0-27.737 11.41-52.809 29.792-70.779l0.019-0.018c17.837-18.39 42.776-29.803 70.381-29.803 0.575 0 1.148 0.005 1.72 0.015l-0.086-0.001c0.396-0.006 0.863-0.009 1.332-0.009 27.956 0 53.252 11.394 71.496 29.791l0.007 0.007c18.725 17.538 30.392 42.415 30.392 70.016 0 0.415-0.003 0.829-0.008 1.242l0.001-0.063v1.564l289.624 165.106zM204.8 396.763c-0.204 0.003-0.446 0.005-0.687 0.005-13.831 0-26.33-5.704-35.272-14.888l-0.011-0.011c-9.195-8.953-14.899-21.452-14.899-35.283 0-0.242 0.002-0.483 0.005-0.724v0.036c-0.003-0.204-0.005-0.446-0.005-0.687 0-13.831 5.704-26.33 14.888-35.272l0.011-0.011c8.953-9.195 21.452-14.899 35.283-14.899 0.242 0 0.483 0.002 0.724 0.005h-0.036c0.204-0.003 0.446-0.005 0.687-0.005 13.831 0 26.33 5.704 35.272 14.888l0.011 0.011c9.195 8.953 14.899 21.452 14.899 35.283 0 0.242-0.002 0.483-0.005 0.724v-0.036c0.003 0.204 0.005 0.446 0.005 0.687 0 13.831-5.704 26.33-14.888 35.272l-0.011 0.011c-8.953 9.195-21.452 14.899-35.283 14.899-0.242 0-0.483-0.002-0.724-0.005h0.036zM1024 396.763c-0.204 0.003-0.446 0.005-0.687 0.005-13.831 0-26.33-5.704-35.272-14.888l-0.011-0.011c-9.195-8.953-14.899-21.452-14.899-35.283 0-0.242 0.002-0.483 0.005-0.724v0.036c-0.003-0.204-0.005-0.446-0.005-0.687 0-13.831 5.704-26.33 14.888-35.272l0.011-0.011c8.953-9.195 21.452-14.899 35.283-14.899 0.242 0 0.483 0.002 0.724 0.005h-0.036c0.204-0.003 0.446-0.005 0.687-0.005 13.831 0 26.33 5.704 35.272 14.888l0.011 0.011c9.195 8.953 14.899 21.452 14.899 35.283 0 0.242-0.002 0.483-0.005 0.724v-0.036c0.003 0.204 0.005 0.446 0.005 0.687 0 13.831-5.704 26.33-14.888 35.272l-0.011 0.011c-8.953 9.195-21.452 14.899-35.283 14.899-0.242 0-0.483-0.002-0.724-0.005h0.036zM259.165 191.963c-0.204 0.003-0.446 0.005-0.687 0.005-13.831 0-26.33-5.704-35.272-14.888l-0.011-0.011c-9.195-8.953-14.899-21.452-14.899-35.283 0-0.242 0.002-0.483 0.005-0.724v0.036c-0.003-0.204-0.005-0.446-0.005-0.687 0-13.831 5.704-26.33 14.888-35.272l0.011-0.011c8.953-9.195 21.452-14.899 35.283-14.899 0.242 0 0.483 0.002 0.724 0.005h-0.036c0.204-0.003 0.446-0.005 0.687-0.005 13.831 0 26.33 5.704 35.272 14.888l0.011 0.011c9.195 8.953 14.899 21.452 14.899 35.283 0 0.242-0.002 0.483-0.005 0.724v-0.036c0.003 0.204 0.005 0.446 0.005 0.687 0 13.831-5.704 26.33-14.888 35.272l-0.011 0.011c-8.953 9.195-21.452 14.899-35.283 14.899-0.242 0-0.483-0.002-0.724-0.005h0.036zM969.56 191.963c-0.204 0.003-0.446 0.005-0.687 0.005-13.831 0-26.33-5.704-35.272-14.888l-0.011-0.011c-9.195-8.953-14.899-21.452-14.899-35.283 0-0.242 0.002-0.483 0.005-0.724v0.036c-0.003-0.204-0.005-0.446-0.005-0.687 0-13.831 5.704-26.33 14.888-35.272l0.011-0.011c8.953-9.195 21.452-14.899 35.283-14.899 0.242 0 0.483 0.002 0.724 0.005h-0.036c0.204-0.003 0.446-0.005 0.687-0.005 13.831 0 26.33 5.704 35.272 14.888l0.011 0.011c9.195 8.953 14.899 21.452 14.899 35.283 0 0.242-0.002 0.483-0.005 0.724v-0.036c0.003 0.204 0.005 0.446 0.005 0.687 0 13.831-5.704 26.33-14.888 35.272l-0.011 0.011c-8.953 9.195-21.451 14.898-35.282 14.898-0.216 0-0.431-0.001-0.646-0.004h0.033z" />
<glyph unicode="&#xe904;" glyph-name="wallet" d="M809.332 960c-0.146 0.001-0.318 0.002-0.49 0.002-6.939 0-13.651-0.975-20.005-2.796l0.511 0.125-693.155-182.644c-28.454-6.945-52.392-23.073-69.103-45.005l-0.219-0.299c-16.642-21.108-26.693-48.089-26.693-77.416 0-0.449 0.002-0.897 0.007-1.345l-0.001 0.068v-586.659c-0.003-0.325-0.005-0.71-0.005-1.095 0-34.93 14.56-66.459 37.941-88.85l0.045-0.042c22.438-23.462 53.991-38.047 88.951-38.047 0.321 0 0.642 0.001 0.962 0.004h767.951c0.325-0.003 0.71-0.005 1.095-0.005 34.93 0 66.459 14.56 88.85 37.941l0.042 0.045c23.426 22.433 37.986 53.963 37.986 88.893 0 0.385-0.002 0.77-0.005 1.154v-0.059 554.698c0.003 0.325 0.005 0.71 0.005 1.095 0 34.93-14.56 66.459-37.941 88.85l-0.045 0.042c-22.433 23.426-53.963 37.986-88.893 37.986-0.385 0-0.77-0.002-1.154-0.005h-570.899l485.314 127.969v-85.333h85.333v85.333c0.007 0.404 0.011 0.88 0.011 1.358 0 23.441-9.997 44.547-25.96 59.287l-0.055 0.050c-15.422 15.268-36.645 24.701-60.071 24.701-0.11 0-0.221 0-0.331-0.001h0.017zM128.031 661.302h768c0.435 0.016 0.945 0.026 1.458 0.026 11.387 0 21.703-4.584 29.204-12.007l-0.004 0.004c7.419-7.497 12.003-17.813 12.003-29.2 0-0.513-0.009-1.023-0.028-1.531l0.002 0.074v-554.698c0.016-0.435 0.026-0.945 0.026-1.458 0-11.387-4.584-21.703-12.007-29.204l0.004 0.004c-7.497-7.419-17.813-12.003-29.2-12.003-0.513 0-1.023 0.009-1.531 0.028l0.074-0.002h-768c-0.435-0.016-0.945-0.026-1.458-0.026-11.387 0-21.703 4.584-29.204 12.007l0.004-0.004c-7.419 7.497-12.003 17.813-12.003 29.2 0 0.513 0.009 1.023 0.028 1.531l-0.002-0.074v554.698c-0.016 0.435-0.026 0.945-0.026 1.458 0 11.387 4.584 21.703 12.007 29.204l-0.004-0.004c7.497 7.419 17.813 12.003 29.2 12.003 0.513 0 1.023-0.009 1.531-0.028l-0.074 0.002zM789.349 405.302c-0.291 0.005-0.633 0.008-0.977 0.008-17.36 0-33.054-7.128-44.318-18.616l-0.010-0.010c-11.498-11.273-18.626-26.968-18.626-44.328 0-0.343 0.003-0.686 0.008-1.028l-0.001 0.052c-0.005-0.291-0.008-0.633-0.008-0.977 0-17.36 7.128-33.054 18.616-44.318l0.010-0.010c11.273-11.498 26.968-18.626 44.328-18.626 0.343 0 0.686 0.003 1.028 0.008l-0.052-0.001c0.291-0.005 0.633-0.008 0.977-0.008 17.36 0 33.054 7.128 44.318 18.616l0.010 0.010c11.498 11.216 18.629 26.862 18.629 44.174 0 0.398-0.004 0.794-0.011 1.19l0.001-0.059c0.007 0.336 0.010 0.733 0.010 1.131 0 17.312-7.131 32.958-18.616 44.161l-0.013 0.012c-11.273 11.498-26.968 18.626-44.328 18.626-0.343 0-0.686-0.003-1.028-0.008l0.052 0.001z" />
<glyph unicode="&#xe905;" glyph-name="wrench" d="M725.274 960c-0.661 0.005-1.442 0.008-2.224 0.008-54.481 0-105.487-14.878-149.176-40.793l1.354 0.743c-45.438-26.575-82.22-63.437-107.942-107.541l-0.759-1.409c-25.172-42.336-40.050-93.341-40.050-147.822 0-0.782 0.003-1.563 0.009-2.343l-0.001 0.12c0.207-14.772 2.141-28.994 5.611-42.604l-0.272 1.259q2.669-13.347 10.678-38.675l1.304-5.339-404.075-404.013c-16.934-16.695-29.315-37.966-35.139-61.807l-0.184-0.893c-2.752-10.709-4.332-23.002-4.332-35.665s1.58-24.956 4.553-36.694l-0.221 1.030c6.12-24.498 18.481-45.543 35.303-62.060l0.020-0.019c16.537-16.842 37.581-29.203 61.18-35.132l0.899-0.191c10.709-2.752 23.002-4.332 35.665-4.332s24.956 1.58 36.694 4.553l-1.030-0.221c24.351 5.809 45.227 18.235 61.277 35.262l0.057 0.061 405.441 404.137 2.669-1.304q26.694-8.008 40.041-10.678c12.782-3.261 27.487-5.2 42.622-5.338l0.089-0.001c0.531-0.003 1.158-0.005 1.787-0.005 54.608 0 105.725 14.948 149.482 40.975l-1.347-0.742c45.413 26.51 82.19 63.287 107.943 107.299l0.758 1.402c25.172 42.336 40.050 93.341 40.050 147.822 0 0.782-0.003 1.563-0.009 2.343l0.001-0.12c0 0.143 0 0.313 0 0.483 0 44.335-9.838 86.372-27.45 124.048l0.756-1.8-25.328 55.871-178.727-178.665h-68.287v68.287l178.727 178.727-55.871 25.328c-35.73 16.701-77.58 26.447-121.706 26.447-0.295 0-0.589 0-0.884-0.001h0.046zM725.274 874.641c3.875-0.181 7.522-0.894 10.955-2.069l-0.277 0.082c2.721-0.976 5.883-1.679 9.162-1.976l0.15-0.011-105.535-106.715v-188.039h188.225l106.715 106.715 1.304-9.312c1.386-3.517 2.337-7.59 2.661-11.838l0.009-0.143c0.006-0.599 0.010-1.307 0.010-2.015 0-38.836-10.661-75.181-29.216-106.27l0.525 0.95c-19.002-32.251-45.138-58.426-76.356-76.929l-0.995-0.546c-30.139-18.030-66.484-28.69-105.32-28.69-0.708 0-1.416 0.004-2.123 0.011l0.108-0.001c-0.217-0.001-0.473-0.001-0.73-0.001-30.134 0-58.779 6.375-84.66 17.849l1.334-0.528-26.694 10.616-440.143-438.777c-8.774-9.852-21.494-16.028-35.657-16.028-0.363 0-0.725 0.004-1.086 0.012l0.054-0.001c-0.254-0.005-0.553-0.007-0.853-0.007-14.262 0-27.152 5.872-36.385 15.331l-0.010 0.010c-9.469 9.243-15.341 22.133-15.341 36.395 0 0.3 0.003 0.599 0.008 0.897l-0.001-0.045c-0.007 0.307-0.011 0.669-0.011 1.032 0 14.163 6.175 26.883 15.98 35.615l0.048 0.042 438.715 440.019-10.678 26.694c-10.947 24.548-17.322 53.193-17.322 83.328 0 0.321 0.001 0.643 0.002 0.964v-0.050c-0.006 0.599-0.010 1.307-0.010 2.015 0 38.836 10.661 75.181 29.216 106.27l-0.525-0.95c19.017 32.202 45.149 58.334 76.353 76.805l0.997 0.546c30.164 18.068 66.547 28.752 105.425 28.752 0.694 0 1.386-0.003 2.078-0.010l-0.106 0.001z" />
<glyph unicode="&#xe906;" glyph-name="alarm" horiz-adv-x="788" d="M393.846 960c-0.309 0.004-0.673 0.007-1.038 0.007-42.934 0-77.738-34.805-77.738-77.738 0-0.365 0.003-0.729 0.008-1.093l-0.001 0.055 1.203-9.853c-46.908-12.063-87.749-33.344-122.313-61.945l0.522 0.419c-35.416-29.033-64.040-64.95-84.076-105.839l-0.823-1.86c-19.447-39.19-30.826-85.345-30.826-134.156 0-0.648 0.002-1.295 0.006-1.942v0.099-354.49c0.019-0.453 0.030-0.984 0.030-1.518 0-20.945-16.979-37.924-37.924-37.924-0.514 0-1.026 0.010-1.536 0.031l0.073-0.002h-39.413v-78.769h283.054c-4.473-11.688-7.164-25.203-7.389-39.316l-0.001-0.097c-0.001-0.197-0.002-0.43-0.002-0.663 0-64.891 52.604-117.495 117.495-117.495 32.782 0 62.428 13.425 83.74 35.077l0.015 0.015c21.624 20.708 35.064 49.812 35.064 82.055 0 0.355-0.002 0.71-0.005 1.065v-0.054c-0.233 14.192-2.924 27.685-7.662 40.171l0.272-0.815h283.054v78.884h-39.356c-0.436-0.018-0.947-0.028-1.46-0.028-20.945 0-37.924 16.979-37.924 37.924 0 0.514 0.010 1.025 0.030 1.533l-0.002-0.073v343.434c0 0.021 0 0.045 0 0.070 0 100.045-44.216 189.762-114.173 250.677l-0.4 0.341c-34.138 29.81-75.421 52.36-120.893 64.748l-2.159 0.501 1.203 9.853c0.004 0.291 0.006 0.635 0.006 0.979 0 42.934-34.805 77.738-77.738 77.738-0.324 0-0.649-0.002-0.972-0.006h0.049zM376.66 802.462h24.633c43.189-1.532 82.974-14.867 116.589-36.853l-0.869 0.534c35.087-22.593 63.247-53.101 82.44-89.113l0.625-1.285c18.974-34.622 30.134-75.858 30.134-119.701 0-0.312-0.001-0.624-0.002-0.936v0.049-343.377c0.226-14.21 2.917-27.725 7.661-40.228l-0.271 0.815h-487.453c4.466 11.671 7.157 25.164 7.389 39.256l0.001 0.1v354.433c-0.005 0.543-0.007 1.186-0.007 1.828 0 41.128 10.728 79.75 29.538 113.221l-0.601-1.164c38.573 68.566 108.22 115.698 189.332 122.365l0.859 0.057zM393.846 93.538c0.401 0.015 0.873 0.024 1.346 0.024 10.511 0 20.033-4.231 26.957-11.083l-0.003 0.003c6.839-6.807 11.071-16.228 11.071-26.637 0-0.363-0.005-0.725-0.015-1.086l0.001 0.053c0.005-0.246 0.009-0.535 0.009-0.825 0-10.673-4.218-20.36-11.077-27.487l0.012 0.013c-6.68-7.071-16.121-11.473-26.59-11.473-0.38 0-0.758 0.006-1.134 0.017l0.055-0.001c-22.147 0-40.101 17.954-40.101 40.101v0c-0.010 0.322-0.016 0.7-0.016 1.079 0 10.469 4.402 19.91 11.456 26.574l0.018 0.016c6.965 6.643 16.418 10.731 26.826 10.731 0.417 0 0.833-0.007 1.247-0.020l-0.061 0.002z" />
<glyph unicode="&#xe907;" glyph-name="exit" d="M354.826-64h-209.619c-80.122 0.184-145.024 65.086-145.208 145.19v733.603c0.184 80.122 65.086 145.024 145.19 145.208h209.583c22.326 0 40.425-18.099 40.425-40.425s-18.099-40.425-40.425-40.425v0h-209.565c-35.47-0.183-64.175-28.887-64.357-64.34v-733.602c0.183-35.47 28.887-64.175 64.34-64.357h209.582c22.326 0 40.425-18.099 40.425-40.425s-18.099-40.425-40.425-40.425v0zM721.619 145.565c-22.311 0.020-40.39 18.112-40.39 40.425 0 11.154 4.518 21.253 11.823 28.568v0l233.389 233.389-233.389 233.389c-7.029 7.264-11.361 17.175-11.361 28.098 0 22.326 18.099 40.425 40.425 40.425 10.91 0 20.81-4.321 28.082-11.346l-0.012 0.011 262.010-262.010c7.321-7.316 11.849-17.426 11.849-28.594s-4.528-21.278-11.849-28.594l-262.010-261.902c-7.301-7.326-17.4-11.858-28.558-11.858-0.003 0-0.006 0-0.010 0v0zM983.575 407.575h-628.748c-22.326 0-40.425 18.099-40.425 40.425s18.099 40.425 40.425 40.425v0h628.748c22.326 0 40.425-18.099 40.425-40.425s-18.099-40.425-40.425-40.425v0z" />
<glyph unicode="&#xe908;" glyph-name="arrow" horiz-adv-x="1791" d="M895.613 244.585l677.127 677.616c23.081 23.207 55.035 37.569 90.343 37.569s67.262-14.362 90.338-37.564l0.006-0.006c23.010-23.293 37.223-55.321 37.223-90.669s-14.213-67.376-37.236-90.682l-767.050-767.213c-23.102-23.034-54.981-37.277-90.186-37.277-33.298 0-63.62 12.741-86.358 33.614l0.093-0.085-772.603 770.648c-21.561 22.866-34.813 53.773-34.813 87.775 0 70.726 57.335 128.061 128.061 128.061 33.84 0 64.614-13.126 87.51-34.563l-0.071 0.066z" />
<glyph unicode="&#xe909;" glyph-name="close" d="M977.455-64c-0.003 0-0.007 0-0.011 0-12.847 0-24.475 5.219-32.88 13.652l-930.91 930.91c-8.411 8.421-13.612 20.049-13.612 32.892s5.202 24.471 13.613 32.893v0c8.421 8.411 20.049 13.612 32.892 13.612s24.471-5.202 32.893-13.613v0l930.909-930.909c8.411-8.421 13.612-20.049 13.612-32.892 0-25.692-20.816-46.522-46.502-46.545h-0.002zM46.545-64c-0.003 0-0.007 0-0.011 0-12.847 0-24.475 5.219-32.88 13.652l-0.001 0.001c-8.429 8.424-13.643 20.065-13.643 32.923s5.214 24.499 13.643 32.923l930.909 930.909c8.424 8.429 20.065 13.643 32.923 13.643s24.499-5.214 32.923-13.643v0c8.429-8.424 13.643-20.065 13.643-32.923s-5.214-24.499-13.643-32.923l-930.909-930.909c-8.406-8.435-20.034-13.653-32.882-13.653-0.026 0-0.051 0-0.077 0h0.004z" />
<glyph unicode="&#xe90a;" glyph-name="download" horiz-adv-x="768" d="M341.333 960v-706.697l-225.28 225.28-61.44-61.44 298.667-298.667 30.652-29.355 30.652 29.355 298.667 298.667-61.44 61.44-225.28-225.28v706.697zM0 21.333v-85.333h768v85.333z" />
<glyph unicode="&#xe90b;" glyph-name="eye" horiz-adv-x="1964" d="M982.016 960c-108.778-0.547-213.27-18.074-311.224-50.059l7.199 2.034c-98.765-32.785-184.086-72.714-263.667-121.141l5.619 3.176c-77.929-45.484-144.513-91.083-207.626-140.887l3.747 2.852c-48.19-38.621-91.254-77.207-132.123-117.992l0.027 0.027-45.978-48.026-37.99-41.984 37.99-41.984 41.984-44.032c37.583-37.479 77.349-72.832 119.067-105.826l2.892-2.206c54.671-45.206 115.413-89.234 178.883-129.337l7.281-4.295c68.391-42.267 147.495-81.312 230.329-112.785l9.697-3.235c82.733-33.096 178.556-55.873 278.564-63.781l3.446-0.219c21.602-2.546 46.625-3.998 71.987-3.998s50.386 1.453 74.991 4.279l-3.004-0.281c103.453 8.127 199.277 30.904 288.706 66.34l-6.696-2.34c92.455 34.721 171.488 73.764 245.951 119.523l-6.13-3.504c70.625 44.512 131.298 88.669 188.896 136.407l-2.938-2.366c44.611 35.202 84.377 70.554 121.991 108.064l-0.032-0.032 41.984 44.032 37.99 41.984-37.99 41.984-45.978 48.026c-40.76 40.59-83.757 79.043-128.745 115.116l-3.146 2.439c-59.391 46.953-126.010 92.553-195.68 133.522l-8.301 4.513c-73.962 45.251-159.283 85.18-249.084 115.352l-8.964 2.613c-90.725 29.942-195.18 47.467-303.649 48.024l-0.274 0.001zM982.016 832c139.971-2.236 271.716-35.203 389.5-92.42l-5.5 2.411c40.188-64.833 64.006-143.474 64.006-227.677 0-0.813-0.002-1.626-0.007-2.438l0.001 0.125c0.007-0.907 0.010-1.98 0.010-3.054 0-76.454-19.261-148.409-53.196-211.277l1.166 2.363c-34.831-65.398-83.514-119.226-142.43-159.067l-1.544-0.984c-57.062-39.265-125.801-65.76-200.066-73.861l-1.969-0.174-49.971-1.946q-15.974 0-49.971 2.048c-76.234 8.275-144.973 34.77-203.533 75.008l1.498-0.973c-60.451 40.799-109.132 94.591-142.828 157.602l-1.146 2.347c-32.768 60.505-52.030 132.46-52.030 208.914 0 1.074 0.004 2.147 0.011 3.218l-0.001-0.165c-0.010 1.103-0.016 2.407-0.016 3.712 0 82.827 23.041 160.273 63.063 226.277l-1.095-1.945h-2.048c113.373 55.996 246.536 89.687 387.335 91.946l0.761 0.010zM982.016 704c-0.244 0.001-0.532 0.002-0.821 0.002-105.586 0-191.181-85.595-191.181-191.181 0-0.289 0.001-0.577 0.002-0.866v0.045c0.341-105.95 86.309-191.707 192.306-191.707 52.803 0 100.635 21.281 135.387 55.734l-0.014-0.014c34.608 34.891 55.994 82.941 55.994 135.987s-21.386 101.096-56.007 136l0.013-0.013c-33.672 34.583-80.68 56.037-132.699 56.037-1.048 0-2.094-0.009-3.138-0.026l0.157 0.002zM421.99 643.994c-9.937-39.571-15.748-85.050-15.974-131.848l-0.001-0.145c-0.007-1.045-0.011-2.28-0.011-3.516 0-112.242 32.792-216.825 89.319-304.691l-1.346 2.235c-117.975 69.83-219.756 149.971-309.73 241.731l-0.235 0.24c70.912 71.666 148.766 136.187 232.559 192.559l5.419 3.434zM1542.042 643.994c89.213-59.808 167.068-124.329 237.849-195.863l0.129-0.13c-90.211-92.002-191.992-172.142-303.121-238.204l-6.843-3.767c55.181 85.631 87.973 190.214 87.973 302.455 0 1.236-0.004 2.472-0.012 3.706l0.001-0.191c-0.227 46.945-6.038 92.423-16.802 135.949l0.827-3.955z" />
<glyph unicode="&#xe90c;" glyph-name="search" d="M625.824 960c-0.72 0.005-1.57 0.008-2.422 0.008-73.073 0-141.391-20.361-199.59-55.718l1.707 0.963c-60.014-34.613-108.498-83.136-142.083-141.338l-0.983-1.846c-34.39-57.409-54.726-126.656-54.726-200.653 0-48.31 8.668-94.595 24.534-137.386l-0.888 2.736c16.578-44.575 38.881-83.086 66.544-117.059l-0.587 0.744-317.331-317.153 57.238-57.238 317.272 317.272c33.228-27.076 71.739-49.379 113.5-65.032l2.815-0.925c40.013-14.944 86.248-23.592 134.503-23.592 73.96 0 143.175 20.316 202.368 55.672l-1.806-0.999c60.001 34.582 108.483 83.064 142.083 141.222l0.983 1.844c34.396 57.292 54.74 126.422 54.74 200.304s-20.343 143.012-55.734 202.095l0.994-1.791c-34.568 60.049-83.053 108.571-141.225 142.203l-1.841 0.982c-56.468 34.357-124.75 54.694-197.782 54.694-0.803 0-1.606-0.002-2.408-0.007l0.124 0.001zM625.824 880.4c0.888 0.009 1.937 0.014 2.987 0.014 57.97 0 112.211-15.965 158.566-43.738l-1.405 0.78c48.065-28.499 87.075-67.585 114.665-114.225l0.819-1.497c26.984-45.851 42.923-101.005 42.923-159.881s-15.939-114.031-43.738-161.383l0.815 1.501c-28.472-48.16-67.563-87.25-114.23-114.904l-1.492-0.818c-45.851-26.984-101.005-42.923-159.881-42.923s-114.031 15.939-161.383 43.738l1.501-0.815c-48.165 28.487-87.257 67.598-114.903 114.287l-0.819 1.494c-26.984 45.851-42.923 101.005-42.923 159.881s15.939 114.031 43.738 161.383l-0.815-1.501c28.472 48.16 67.563 87.25 114.23 114.904l1.492 0.818c45.043 27.136 99.423 43.189 157.553 43.189 0.808 0 1.616-0.003 2.423-0.009l-0.124 0.001z" />
<glyph unicode="&#xe90d;" glyph-name="pencil" horiz-adv-x="1023" d="M885.494 960c-0.353 0.003-0.771 0.005-1.189 0.005-37.517 0-71.374-15.673-95.379-40.83l-0.049-0.052-3.986-3.986-26.418 25.066-696.45-696.72-48.781-245.46-13.513-62.024 62.024 13.513 245.46 48.849 697.058 696.45-25.066 25.066 2.635 2.635 1.351 2.635c16.797 16.592 29.218 37.577 35.398 61.092l0.208 0.932c2.933 10.589 4.619 22.749 4.619 35.302s-1.686 24.713-4.843 36.265l0.224-0.962c-6.511 24.187-18.91 44.927-35.588 61.33l-0.018 0.018c-12.669 12.725-27.803 22.984-44.628 30l-0.91 0.337c-15.4 6.614-33.321 10.484-52.138 10.54h-0.021zM885.494 876.896c15.2-0.081 28.873-6.551 38.482-16.86l0.029-0.031c10.531-9.179 17.148-22.617 17.148-37.599s-6.617-28.42-17.089-37.549l-0.059-0.051-3.986-3.986-75.469 74.928 3.986 3.986c9.17 10.198 22.261 16.713 36.879 17.159l0.078 0.002zM760.163 821.494l125.331-125.399-60.808-62.024-126.615 126.683zM640.236 700.081l123.845-123.845-440.788-442.274-17.161 76.55-5.27 26.418-26.418 5.27-76.55 17.161zM137.493 186.595l92.36-21.148 21.148-92.36-85.806-17.161-45.2 45.065z" />
<glyph unicode="&#xe90e;" glyph-name="car-alt" horiz-adv-x="1463" d="M391.519 813.714h120.481v-219.429h-257.463l69.339 173.495c10.967 27.136 37.096 45.934 67.616 45.934 0.009 0 0.019 0 0.028 0h-0.002zM621.714 594.286v219.429h185.783c0.001 0 0.002 0 0.003 0 23.057 0 43.627-10.652 57.056-27.303l0.109-0.14 153.483-191.985zM1207.325 592.004l-228.557 285.725c-40.496 50.333-102.088 82.271-171.139 82.271-0.046 0-0.093 0-0.139 0h-415.971c-0.055 0-0.121 0-0.187 0-91.717 0-170.27-56.361-202.915-136.338l-0.528-1.464-95.086-237.978c-54.802-21.952-92.804-74.618-92.804-136.159 0-0.022 0-0.044 0-0.066v0.003-256c0-0.017 0-0.038 0-0.059 0-40.363 32.721-73.084 73.084-73.084 0.021 0 0.041 0 0.062 0h76.065c18.076-104.58 108.118-183.121 216.503-183.121s198.427 78.54 216.315 181.812l0.188 1.308h298.423c18.076-104.58 108.118-183.121 216.503-183.121s198.427 78.54 216.315 181.812l0.188 1.308h76.069c0.017 0 0.038 0 0.059 0 40.363 0 73.084 32.721 73.084 73.084 0 0.021 0 0.041 0 0.062v-0.003 109.714c0 0.021 0 0.047 0 0.072 0 148.525-110.673 271.2-254.050 290.058l-1.482 0.159zM993.573 192c15.911 42.224 55.973 71.716 102.924 71.716 60.594 0 109.714-49.121 109.714-109.714s-49.121-109.714-109.714-109.714c-33.491 0-63.478 15.006-83.602 38.662l-0.129 0.156c-16.156 18.987-25.983 43.794-25.983 70.896 0 13.643 2.49 26.704 7.041 38.754l-0.25-0.755zM365.714 265.143c0.002 0 0.003 0 0.005 0 60.594 0 109.714-49.121 109.714-109.714s-49.121-109.714-109.714-109.714c-60.594 0-109.714 49.121-109.714 109.714 0 20.186 5.451 39.099 14.962 55.346l-0.28-0.518c19.318 33.041 54.622 54.885 95.027 54.886v0z" />
<glyph unicode="&#xe90f;" glyph-name="alert" horiz-adv-x="389" d="M0 960h389.389l-65.161-623.045h-259.339zM194.722-64c-2.19-0.090-4.761-0.141-7.344-0.141-50.090 0-95.683 19.251-129.785 50.758l0.129-0.117c-32.851 29.84-53.392 72.726-53.392 120.409 0 0.774 0.005 1.547 0.016 2.319l-0.001-0.117c-0.027 1.088-0.042 2.369-0.042 3.653 0 47.004 20.594 89.197 53.251 118.051l0.169 0.147c34.324 30.113 79.599 48.484 129.166 48.484 2.755 0 5.497-0.057 8.225-0.169l-0.39 0.013c2.337 0.1 5.079 0.156 7.835 0.156 49.566 0 94.842-18.371 129.389-48.676l-0.223 0.192c32.826-29 53.42-71.193 53.42-118.197 0-1.285-0.015-2.566-0.046-3.843l0.004 0.19c0.010-0.655 0.015-1.428 0.015-2.202 0-47.683-20.542-90.568-53.259-120.289l-0.134-0.12c-33.973-31.389-79.566-50.641-129.656-50.641-2.583 0-5.154 0.051-7.712 0.153l0.367-0.012z" />
<glyph unicode="&#xe910;" glyph-name="clock" d="M512 960c-0.632 0.003-1.379 0.005-2.127 0.005-94.692 0-183.248-26.27-258.778-71.918l2.243 1.258c-76.647-44.117-138.564-106.034-181.429-180.328l-1.252-2.354c-44.405-73.988-70.667-163.258-70.667-258.662s26.262-184.675 71.952-260.977l-1.284 2.314c44.308-77.009 106.163-139.389 180.354-183.053l2.328-1.267c73.894-43.671 162.839-69.474 257.81-69.474 283.373 0 513.092 229.719 513.092 513.092 0 95.059-25.851 184.081-70.905 260.419l1.306-2.392c-44.931 76.518-107.31 138.373-181.916 181.403l-2.404 1.278c-73.287 44.39-161.842 70.659-256.533 70.659-0.629 0-1.257-0.001-1.885-0.003h0.097zM512 874.667c0.041 0 0.089 0 0.137 0 235.566 0 426.53-190.964 426.53-426.53 0-0.048 0-0.096 0-0.144v0.008c0-0.041 0-0.089 0-0.137 0-235.566-190.964-426.53-426.53-426.53-0.048 0-0.096 0-0.144 0h0.008c-0.041 0-0.089 0-0.137 0-235.566 0-426.53 190.964-426.53 426.53 0 0.048 0 0.096 0 0.144v-0.008c0 0.041 0 0.089 0 0.137 0 235.566 190.964 426.53 426.53 426.53 0.048 0 0.096 0 0.144 0h-0.008zM469.333 789.333v-384h298.667v85.333h-213.333v298.667z" />
<glyph unicode="&#xe911;" glyph-name="apple" horiz-adv-x="853" d="M633.483 720.321c-89.678 0-127.402-44.002-189.818-44.002-63.97 0-112.755 43.703-190.356 43.703-89.107-5.593-165.431-55.52-207.69-127.792l-0.661-1.224c-72.22-114.608-59.785-330.552 57.035-514.511 41.85-65.764 97.868-139.718 171.165-140.495h1.315c63.731 0 82.623 42.926 170.328 43.464h1.315c86.39 0 103.727-43.165 167.398-43.165h1.315c73.297 0.777 132.245 82.623 174.094 148.207 23.447 35.584 45.082 76.454 62.74 119.379l1.768 4.855c-83.742 35.015-141.513 116.268-141.513 211.014 0 83.333 44.691 156.228 111.413 196.024l1.045 0.577c-43.583 60.074-112.056 99.795-189.97 103.94l-0.625 0.027zM613.814 960c-61.648-7.911-114.872-38.875-151.644-83.822l-0.329-0.415c-31.602-36.812-50.841-85.039-50.841-137.76 0-8.569 0.508-17.019 1.496-25.322l-0.097 1.004h4.245c61.068 3.366 114.367 33.938 148.369 79.702l0.376 0.53c30.979 38.499 49.723 87.983 49.723 141.845 0 8.538-0.471 16.967-1.389 25.261l0.092-1.022z" />
<glyph unicode="&#xe912;" glyph-name="play" horiz-adv-x="923" d="M600.123 491.284l-441.513 442.709 561.98-322.481-120.467-120.228zM43.105 960c-25.922-12.963-43.409-39.307-43.409-69.737 0-0.306 0.002-0.611 0.005-0.916v0.046-882.787c-0.003-0.258-0.005-0.564-0.005-0.87 0-30.429 17.487-56.774 42.96-69.533l0.449-0.204 513.315 512.12zM893.967 508.682l-117.837 68.215-131.527-129.016 131.527-129.016 120.228 68.215c16.427 14.753 26.712 36.062 26.712 59.773 0 24.82-11.27 47.008-28.972 61.725l-0.131 0.106zM158.61-38.412l561.98 322.481-120.467 120.407z" />
<glyph unicode="&#xe913;" glyph-name="loading" d="M490.709 788.267v171.733h42.667v-171.733l-21.333 1.067-21.333-1.067zM188.672 556.672l-165.717 44.416-11.093-41.216 165.589-44.373c2.859 14.123 6.699 27.776 11.221 41.173zM444.459 782.592l-44.331 165.461-41.259-11.051 44.416-165.675c13.44 4.523 27.093 8.405 41.173 11.264zM170.709 448l1.067 21.291h-171.776v-42.667h171.776l-1.067 21.376zM286.464 703.701l-121.429 121.387-30.165-30.165 121.429-121.429c9.429 10.709 19.499 20.779 30.165 30.208zM227.712 636.757l-148.48 85.717-21.333-36.949 148.651-85.845c6.4 12.757 13.312 25.216 21.163 37.077zM812.075 610.859l147.84 85.333-8.832 15.36-148.224-85.547 9.216-15.147zM844.117 525.824l165.248 44.288-5.504 20.608-165.077-44.245 5.333-20.651zM687.232 740.523l85.547 148.139-9.259 5.333-85.419-147.925 9.131-5.547zM603.819 776.491l44.245 165.163-6.827 1.835-44.288-165.248 6.869-1.749zM758.229 683.989l120.96 120.917-10.069 10.069-120.917-120.875 10.027-10.112zM360.277 753.408l-85.803 148.651-36.907-21.333 85.717-148.437c11.776 7.851 24.235 14.763 36.992 21.12zM177.451 380.373l-165.547-44.373 11.093-41.216 165.717 44.416c-4.523 13.397-8.405 27.051-11.264 41.173zM665.344 143.317l85.76-148.523 33.835 19.541-85.675 148.395c-10.88-7.125-22.272-13.483-33.92-19.413zM799.104 263.765l148.352-85.632 16 27.691-148.309 85.632c-4.949-9.557-10.325-18.731-16.043-27.691zM740.224 194.645l121.259-121.259 25.173 25.131-121.301 121.259c-7.979-8.832-16.341-17.195-25.131-25.131zM837.845 345.941l165.077-44.245 7.339 27.477-165.291 44.288c-2.091-9.301-4.352-18.517-7.125-27.52zM852.736 460.373l0.64-12.373-0.64-12.501h171.264v24.875h-171.264zM579.584 113.408l44.331-165.504 41.259 11.051-44.416 165.717c-13.44-4.523-27.093-8.405-41.173-11.264zM512.043 106.667l-21.333 1.067v-171.733h42.667v171.733l-21.333-1.067zM256.384 222.379l-121.472-121.429 30.165-30.165 121.472 121.472c-10.667 9.387-20.779 19.456-30.165 30.123zM206.677 296.192l-148.693-85.845 21.333-36.949 148.48 85.717c-7.893 11.861-14.805 24.32-21.12 37.077zM323.328 163.669l-85.76-148.523 36.907-21.333 85.888 148.736c-12.757 6.357-25.216 13.269-37.035 21.12zM403.371 124.629l-44.459-165.803 41.259-11.051 44.373 165.589c-14.080 2.859-27.733 6.741-41.173 11.264z" />
<glyph unicode="&#xe914;" glyph-name="arrow-back" horiz-adv-x="1328" d="M510.304 960l-472.093-472.093-38.21-39.907 38.21-39.907 472.093-472.093 79.813 79.813-376.608 376.608h1114.234v111.076h-1114.234l376.608 376.689z" />
<glyph unicode="&#xe915;" glyph-name="check" d="M512 960c-187.447-0.113-351.333-100.881-440.548-251.177l-1.3-2.366c-44.091-74.003-70.155-163.19-70.155-258.465s26.064-184.462 71.451-260.82l-1.296 2.354c90.521-152.616 254.424-253.322 441.848-253.322 282.698 0 511.883 229.114 512 511.784v0.011c0.046 2.391 0.072 5.211 0.072 8.036 0 54.981-9.956 107.638-28.163 156.264l1.010-3.076-63.992-62.763c7.769-29.542 12.254-63.467 12.304-98.431v-0.031c0.005-0.772 0.008-1.686 0.008-2.6 0-79.836-21.957-154.544-60.161-218.415l1.076 1.942c-37.468-65.055-90.026-117.613-153.082-154.017l-1.998-1.064c-62.785-37.133-138.367-59.073-219.073-59.073s-156.288 21.941-221.105 60.182l2.032-1.109c-65.055 37.468-117.613 90.026-154.017 153.082l-1.064 1.998c-37.133 62.785-59.073 138.367-59.073 219.073s21.941 156.288 60.182 221.105l-1.109-2.032c37.468 65.055 90.026 117.613 153.082 154.017l1.998 1.064c62.646 37.135 138.086 59.081 218.652 59.081 60.109 0 117.366-12.216 169.421-34.301l-2.844 1.072c51.775-21.475 95.955-51.441 132.914-88.598l0.017-0.017 55.391 55.391c-44.785 44.795-98.163 80.996-157.45 105.918l-3.239 1.208c-56.535 24.093-122.303 38.099-191.343 38.099-0.86 0-1.719-0.002-2.577-0.007l0.132 0.001zM956.258 791.434l-444.258-444.353-168.566 168.661-56.714-56.714 196.923-196.923 28.357-27.081 28.357 27.081 472.615 472.615z" />
</font>
</defs>
</svg>
